#TITLE:Bloody Tears;
#SUBTITLE:SDO China lv16 - [N]hok[Q] Simfile;
#ARTIST:dj Yoshitaka;
#TITLETRANSLIT:;
#SUBTITLETRANSLIT:;
#ARTISTTRANSLIT:;
#CREDIT:[N]hok[Q];
#BANNER:bn-bloodytears.png;
#BACKGROUND:bg-bloodytears.png;
#LYRICSPATH:;
#CDTITLE:cd-bloodytears.png;
#MUSIC:Bloody Tears.mp3;
#OFFSET:-0.075;
#SAMPLESTART:1.486;
#SAMPLELENGTH:22.588;
#SELECTABLE:YES;
#DISPLAYBPM:170.000;
#BPMS:0.000=170.002,5.000=169.992,6.000=170.002,11.000=169.992,12.000=170.002,16.000=169.992,17.000=170.002,22.000=169.992,23.000=170.002,27.000=169.992,28.000=170.002,32.000=169.992,33.000=170.002,38.000=169.992,39.000=170.002,43.000=169.992,44.000=170.002,48.000=169.992,49.000=170.002,54.000=169.992,55.000=170.002,59.000=169.992,60.000=170.002,66.000=169.992,67.000=170.002,74.000=169.992,75.000=170.002,82.000=169.992,83.000=170.002,90.000=169.992,91.000=170.002,98.000=169.992,99.000=170.002,106.000=169.992,107.000=170.002,114.000=169.992,115.000=170.002,122.000=169.992,123.000=170.002,126.000=169.992,127.000=170.002,130.000=169.992,131.000=170.002,134.000=169.992,135.000=170.002,138.000=169.992,139.000=170.002,142.000=169.992,143.000=170.002,146.000=169.992,147.000=170.002,150.000=169.992,151.000=170.002,154.000=169.992,155.000=170.002,158.000=169.992,159.000=170.002,162.000=169.992,163.000=170.002,166.000=169.992,167.000=170.002,170.000=169.992,171.000=170.002,174.000=169.992,175.000=170.002,178.000=169.992,179.000=170.002,182.000=169.992,183.000=170.002,186.000=169.992,187.000=170.002,190.000=169.992,191.000=170.002,194.000=169.992,195.000=170.002,198.000=169.992,199.000=170.002,202.000=169.992,203.000=170.002,206.000=169.992,207.000=170.002,210.000=169.992,211.000=170.002,214.000=169.992,215.000=170.002,218.000=169.992,219.000=170.002,222.000=169.992,223.000=170.002,226.000=169.992,227.000=170.002,230.000=169.992,231.000=170.002,234.000=169.992,235.000=170.002,238.000=169.992,239.000=170.002,242.000=169.992,243.000=170.002,246.000=169.992,247.000=170.002;
#STOPS:;
#BGCHANGES:;
// cache tags:
#FIRSTBEAT:4.000;
#LASTBEAT:307.250;
#SONGFILENAME:songs/SDO Latino/Bloody Tears/Bloody Tears.sm;
#HASMUSIC:1;
#HASBANNER:1;
#MUSICLENGTH:111.384;
// end cache tags

//---------------dance-single - ----------------
#NOTES:
     dance-single:
     :
     Hard:
     16:
     1.000,1.000,1.000,0.000,0.669,673.000,348.000,0.000,0.000,8.000:
0000
0000
0000
0000
,
1010
1010
1010
1010
,
1010
0001
1010
0001
1010
0001
1010
0001
,
0101
0101
0101
0101
,
0101
1000
0101
1000
0101
1000
0101
1000
,
1101
1101
1011
1011
,
1001
0100
1001
0100
1001
0100
1001
0101
,
0111
0111
1110
1110
,
0010
0001
0010
0001
0010
0001
0010
0001
,
1001
0000
1001
0010
1100
0000
1100
0010
,
0101
1000
0110
1001
0110
1000
0110
1001
,
0101
0000
0110
0001
1010
0000
1001
0010
,
0101
1000
0110
1001
0101
1010
0101
1010
,
1010
0000
1010
0100
1001
0000
0101
1000
,
0110
0001
0110
1001
0110
0001
1010
0101
,
1010
1010
0101
0101
0110
0110
1001
1001
,
0101
0000
0010
0000
0101
0000
0010
0000
1001
0000
0100
0000
1001
0000
0100
0000
1010
0000
0100
0000
1001
0000
0010
0000
1001
0100
0010
0001
1000
0100
0010
0001
,
1100
0000
0000
0000
,
1100
0001
0010
0100
1000
0010
0100
1000
,
0100
0010
0001
0010
0100
1000
0010
0100
,
1100
0001
0010
0100
1000
0010
0100
1000
,
0101
0010
0001
0010
0101
1000
0011
0100
,
1100
0001
0010
0100
1000
0010
0100
1000
,
0100
0010
0001
0010
0100
1000
0010
0100
,
1100
0001
0010
0100
1100
0010
0100
1000
,
1100
0010
1001
0010
0101
1010
0011
1100
,
1010
0000
0001
0010
1100
0000
0001
0010
1001
0010
0100
0010
1001
0000
0000
0000
,
1010
0001
1100
0001
1010
0001
1100
0010
1100
0011
1100
0011
0000
0000
0010
0001
,
1100
0101
1010
0110
1001
1100
0011
0101
,
1010
0000
0000
0001
1100
0001
0010
0100
1001
0010
0101
0000
0110
0000
1100
0000
,
1001
0000
0001
0100
1010
0000
0101
1000
0101
0001
1010
1000
0110
1000
0101
0010
,
1001
0000
0100
0001
1010
0100
0010
0001
0101
0010
1100
0000
0011
0000
1010
0000
,
1100
0000
0001
0100
1001
0000
0100
0100
1010
0010
1001
1000
0011
0100
1010
0100
,
1010
0000
0000
0101
1010
0000
0011
0100
1001
0010
0101
0000
1100
0000
0110
0000
,
0101
0000
0010
1000
0101
0000
0100
1000
0011
0010
1100
1000
0110
1000
0101
0010
,
0101
0000
1010
0000
0011
0000
1010
0100
0011
0000
1001
0000
1010
0000
0110
0000
,
0011
0000
0000
0110
0000
0000
1100
0000
0011
0000
0000
1010
0000
0000
1100
0000
,
0101
0000
0000
0110
0000
0000
1010
0000
0101
0010
1000
0010
0100
0010
1000
0100
,
0011
0000
1100
0011
0000
0000
0110
0000
0011
0000
1010
0101
0000
0000
1100
0000
,
0101
0000
1100
0011
0000
0000
1010
0000
0010
0000
0001
0000
1000
0100
0000
0000
,
0101
0000
0000
1010
0000
0000
1100
0000
0011
0000
0000
1010
0000
0000
1100
0000
,
0101
0000
0000
1010
0000
0000
0110
0000
1001
0010
0100
0010
1000
0010
1000
0100
,
0011
0000
1010
0101
0000
0000
1100
0000
0101
0000
0110
1001
0000
0000
0110
0000
,
0101
0000
1010
0011
0000
0000
0101
0100
1010
0000
0001
0000
0010
0001
0000
0000
,
1010
0001
0110
1000
0110
0001
0110
1000
,
0101
0010
1001
0010
0101
1000
0101
1001
,
0110
0001
0110
1000
0110
0001
1010
0100
,
1001
0100
1010
0100
1001
0010
0101
1010
,
1010
0001
1010
0100
1010
0001
1010
0100
,
1010
0001
0110
0001
1010
0001
0110
1001
,
1010
1010
0101
0101
1001
1001
0110
0110
,
1100
0000
0001
0000
0110
0000
0001
0000
1100
0000
0001
0000
1010
0000
0001
0000
1100
0000
0011
0000
1100
0000
0011
0000
1000
0100
0010
0001
1000
0100
0010
0001
,
1100
1000
0010
1000
0001
1000
0100
1000
,
0001
1000
0100
1000
0001
1000
0010
0001
,
0010
0000
0100
0000
0010
0000
0100
0100
0010
0000
0100
0000
0010
0000
0100
0000
,
0001
1000
0010
0100
0001
0100
0001
1000
,
0011
1000
0100
1000
0010
1000
0001
1000
,
0101
1000
0010
1000
0001
1000
0010
0001
,
0010
0000
1000
0000
0010
0000
1000
1000
0010
0000
1000
0000
0010
0000
0100
0000
,
0001
0100
0010
1000
1000
0100
0010
0001
,
0000
0000
0000
0000
0000
0000
0000
0000
0000
0000
0000
0000
0000
0000
1000
0100
,
0101
0011
1010
0110
1001
0101
1010
1100
,
0011
0000
0000
1010
0101
0000
0010
0100
1001
0010
1100
0000
0011
0000
1010
0000
,
1001
0000
0100
1000
0011
0000
1100
0001
1100
1000
0011
0001
0110
0001
1100
0010
,
1001
0000
0100
0011
0000
0100
0010
1000
0110
0000
0000
0101
1000
0000
1010
0000
,
0011
0000
0100
1000
1001
0000
0010
0010
0101
0100
1001
0010
1001
0100
0011
1000
,
0011
0000
0000
1100
0011
0000
1010
0100
1001
0010
1100
0000
0101
0000
0110
0000
,
1100
0000
0010
0001
1100
0000
0100
0100
1010
0010
0101
0100
1010
0001
1100
0001
,
0110
0000
1100
0001
1010
0100
0011
0100
1010
0100
1001
0100
0011
1000
0110
0001
,
0110
0000
0000
1100
0000
0000
0101
0000
1010
0000
0000
1100
0000
0000
0011
0000
,
1010
0000
0000
1100
0000
0000
0011
0000
1001
0010
0001
0100
0010
0100
0010
1000
,
1010
0000
1100
0011
0000
0000
0101
0000
1010
0000
1001
0110
0000
0000
0101
0000
,
1100
0000
0101
1010
0000
0000
0011
0000
0100
0000
0001
0000
1000
0100
0000
0000
,
1010
0000
0000
1100
0000
0000
0101
0000
1010
0000
0000
1100
0000
0000
0011
0000
,
1010
0000
0000
1100
0000
0000
0110
0000
1001
0010
0100
0010
0001
0010
0001
0100
,
1001
0000
1100
0011
0000
0000
0101
0000
1100
0000
1010
0101
0000
0000
0011
0000
,
0110
0000
1100
1001
0000
0000
1001
0001
0110
0000
0001
0000
0010
0001
0000
0000
,
0000
0000
0000
0000
,
0000
0000
0000
0000
;

//---------------dance-solo - ----------------
#NOTES:
     dance-solo:
     :
     Hard:
     16:
     1.000,1.000,1.000,0.000,0.637,666.000,378.000,0.000,0.000,11.000:
000000
000000
000000
000000
,
010010
010010
010010
010010
,
010010
000100
010010
000100
010010
000100
010010
000100
,
100001
100001
100001
100001
,
100001
000010
100001
000010
100001
000010
100001
000010
,
101001
101001
100101
100101
,
100001
001000
100001
001000
100001
001000
100001
001001
,
010101
010101
101010
101010
,
010000
001000
010000
001000
010000
001000
010000
001000
,
100001
000000
100001
000010
101000
000000
100100
000010
,
100001
010000
100010
010001
100010
010000
100100
010010
,
101000
000000
100100
000001
100010
000000
100100
000010
,
010100
100000
011000
100010
010001
100010
010100
100001
,
100001
000000
100001
010000
001001
000000
001001
010000
,
100010
000001
010010
100001
010010
000001
001010
010001
,
101000
101000
010010
010010
100001
100001
001100
001100
,
010001
000000
001000
000000
100100
000000
000010
000000
100100
000000
000010
000000
101000
000000
000001
000000
100100
000000
000001
000000
100010
000000
000001
000000
100010
010000
001000
000100
000010
000001
010000
001000
,
100101
000000
000000
000000
,
110000
000001
000010
000100
001000
000100
001000
010000
,
001000
000100
000010
000100
001000
100000
001000
010000
,
110000
000001
000010
000100
001000
000100
001000
010000
,
001001
000100
000010
000100
001001
100000
001001
010000
,
110000
000001
000010
000100
001000
000100
001000
010000
,
001000
000100
000010
000100
001000
100000
001000
010000
,
110000
000001
000010
100100
101000
000100
001000
110000
,
101000
000100
100010
000100
001001
100010
001001
010010
,
101010
000000
000001
000010
101000
000000
000010
000100
101000
000100
000010
001000
100001
000000
000000
000000
,
100100
000001
101000
000001
100100
000001
101000
000001
101000
000101
101000
000101
000000
000000
010000
001000
,
100100
000101
100010
011000
010010
101000
001010
010100
,
100100
000000
000000
000101
101000
010000
001000
000100
100010
000100
010010
000000
010100
000000
101000
000000
,
100100
000000
000101
001000
100010
000000
010100
100000
010010
000010
100100
100000
001010
100000
010100
001000
,
000101
000000
010000
000101
101000
010000
001000
000100
010010
000000
000000
000000
001001
000000
100100
000000
,
100100
000000
000101
010000
100100
000000
010000
010000
100100
000100
010010
010000
001010
000100
100001
000100
,
100001
000000
000000
100100
001001
000000
001010
010000
100100
001000
010010
000000
100100
000000
011000
000000
,
010100
000000
000001
000010
101000
000000
010000
100000
000101
000100
101000
100000
001010
100000
010100
001000
,
000101
000000
101000
000000
010100
000000
101000
010000
001010
000000
100100
000000
010010
000000
001001
000000
,
000101
000000
000000
010100
000000
000000
110000
000000
000101
000000
000000
010010
000000
000000
110000
000000
,
000011
000000
000000
010010
000000
000000
101000
000000
010001
000010
100001
000100
010010
001000
100010
010000
,
001010
000000
101000
000101
000000
000000
010100
000000
001010
000000
100100
001001
000000
000000
101000
000000
,
001010
000000
101000
000101
000000
000000
010100
000000
000010
000000
000001
000000
000100
001000
000000
000000
,
000101
000000
000000
101000
000000
000000
110000
000000
000011
000000
000000
010100
000000
000000
110000
000000
,
001001
000000
000000
001010
000000
000000
101000
000000
100001
000100
010010
001000
100010
001000
100100
010000
,
001010
000000
101000
000101
000000
000000
010100
000000
001010
000000
010100
001001
000000
000000
101000
000000
,
010010
000000
100100
000101
000000
000000
010010
010000
001010
000000
000001
000000
000010
000001
000000
000000
,
001100
000001
001100
100000
001100
000010
001100
010000
,
100001
010010
001001
010010
010001
100100
010001
100010
,
001100
000001
001100
100000
001100
000010
001100
010000
,
100100
010010
100001
010010
100001
001010
100001
010010
,
010010
000001
010010
000100
010010
001000
010010
100000
,
100010
010001
001010
010001
001010
100001
010010
100001
,
010100
010100
001010
001010
100100
100100
001001
001001
,
101000
000000
000001
000000
010100
000000
000001
000000
101000
000000
000001
000000
010100
000000
000001
000000
101000
000000
000101
000000
101000
000000
000101
000000
100000
010000
001000
000100
000010
000001
010000
001000
,
100101
100000
001000
100000
000100
100000
000010
100000
,
000001
100000
010000
100000
000001
100000
000100
000010
,
000100
000000
001000
000000
000100
000000
001000
001000
000100
000000
001000
000000
000100
000000
001000
000000
,
000001
100000
000100
001000
000010
010000
000001
100000
,
001010
100000
010000
100000
001000
100000
000100
100000
,
000101
100000
010000
100000
000001
100000
000100
000010
,
000100
000000
010000
000000
000010
000000
010000
010000
000010
000000
010000
000000
000010
000000
010000
000000
,
000001
001000
000100
100000
001000
000100
000010
000001
,
000000
000000
000000
000000
000000
000000
000000
000000
000000
000000
000000
000000
000000
000000
010000
001000
,
100100
000101
100010
011000
010010
101000
001010
010100
,
100100
000000
000000
000101
101000
010000
001000
000100
100010
000100
010001
000000
001010
000000
010100
000000
,
100100
000000
000101
001000
100010
000000
010100
100000
010010
000010
100100
100000
001010
100000
010100
001000
,
000101
000000
010000
000101
101000
010000
001000
000100
010010
000000
000000
000000
000101
000000
101000
000000
,
101000
000000
000101
010000
100100
000000
010000
010000
100100
000100
010010
010000
001010
000100
100001
000100
,
100001
000000
000000
100100
001001
000000
001010
010000
100100
001000
010010
000000
100010
000000
010100
000000
,
010010
000000
000001
000010
101000
000000
010000
110000
000101
000100
101000
100000
001010
100000
010100
001000
,
000101
000000
101000
000000
010100
000000
101000
010000
001010
000000
101000
000000
010100
000000
001010
000000
,
000101
000000
000000
010100
000000
000000
110000
000000
000101
000000
000000
010010
000000
000000
110000
000000
,
000011
000000
000000
010010
000000
000000
101000
000000
010001
000010
100001
000100
010010
001000
100010
010000
,
001010
000000
101000
000101
000000
000000
010100
000000
001010
000000
100100
001001
000000
000000
101000
000000
,
001010
000000
101000
000101
000000
000000
010100
000000
000010
000000
000001
000000
001000
000100
000000
000000
,
000101
000000
000000
101000
000000
000000
110000
000000
000011
000000
000000
010100
000000
000000
110000
000000
,
001001
000000
000000
001010
000000
000000
101000
000000
100001
000100
010010
001000
100010
001000
100100
010000
,
001010
000000
101000
000101
000000
000000
010100
000000
001010
000000
010100
001001
000000
000000
101000
000000
,
010010
000000
100100
000101
000000
000000
010010
010000
001010
000000
000001
000000
000010
000001
000000
000000
,
000000
000000
000000
000000
,
000000
000000
000000
000000
;

//---------------techno-single8 - ----------------
#NOTES:
     techno-single8:
     :
     Hard:
     8:
     0.758,0.862,0.000,0.000,1.000,591.000,0.000,0.000,68.000,0.000:
0000
0000
0000
0000
0000
0000
0000
0000
,
0010
0000
0000
0100
0000
0010
0000
0010
,
0010
0000
0001
0000
0000
1000
0001
0000
0000
0100
0010
0000
0100
0000
0000
0100
,
0010
0000
0000
0100
0000
1000
0000
0010
,
0000
0010
0000
0000
0000
0000
0000
0010
0000
0000
0000
0000
0100
0000
0000
0000
0000
0000
0100
0000
0000
0000
0000
0000
0001
0000
0000
0000
0000
0000
0010
0000
0000
0000
0000
0000
0000
0100
0000
0000
0000
0000
0000
0100
0000
0000
M000
000M
,
0000
0000
0000
1000
0010
0000
0000
0010
,
0100
0000
0000
0000
0000
0000
0000
1000
0000
0000
0000
0000
0000
0010
0000
0000
0000
0000
0001
0000
0000
0000
0000
0000
0000
1000
0000
0000
0000
0000
0000
0100
0000
0000
0000
0000
0010
0000
0000
0000
0000
0000
0100
0000
0000
0000
M000
000M
,
0000
0000
0000
1000
0000
1000
0100
0000
,
0010
0000
0000
0000
0000
0000
0000
1000
0000
0000
0000
0000
0100
0000
0000
0000
0000
0000
0000
1000
0000
0000
0000
0000
0000
0100
0000
0000
0000
0000
0000
0010
0000
0000
0000
0000
0001
0000
0000
0000
0000
0000
0010
0000
0000
0000
M000
000M
,
0000
0000
0000
0000
0010
0000
0100
0000
0001
0000
0000
0000
0000
0100
0000
0100
,
0000
0010
0000
0000
0000
0000
0000
0000
0000
0000
0000
0000
0010
0000
0000
0000
0000
0000
0000
1000
0000
0000
0000
0000
0000
0100
0000
0000
0000
0000
0000
0000
0000
0000
0000
0000
0100
0000
0000
0000
0000
0000
0000
0010
0000
0000
M000
000M
,
0000
0000
0000
0000
0000
0010
0000
0010
0001
0000
0000
0000
0010
0000
0100
0000
,
0000
1000
0000
0000
0000
0000
0000
0000
0000
0000
0000
0000
0000
0100
0000
0000
0000
0000
0010
0000
0000
0000
0000
0000
0001
0000
0000
0000
0000
0000
0100
0000
0000
0000
0000
0000
0000
0010
0000
0000
0000
0000
0000
1000
0000
0000
M000
000M
,
0000
0000
0000
0000
0001
0000
0000
0100
0000
1000
0000
0000
0100
0000
0010
0000
,
0100
0000
0000
0000
0000
0000
0000
0000
0000
0000
0000
0000
0100
0000
0000
0000
0000
0000
0000
1000
0000
0000
0000
0000
0000
0010
0000
0000
0000
0000
0010
0000
0000
0000
0000
0000
0000
1000
0000
0000
0000
0000
0000
0100
0000
0000
M000
000M
,
0000
0000
0010
0000
0000
0100
0000
0100
0010
0000
0010
0000
0000
0010
0000
0010
,
0000
0010
0001
0000
0000
0100
0010
0000
0000
1000
0100
0000
0000
0100
0010
0000
0000
0010
0001
0000
0000
0100
0010
0000
0000
1000
0000
1000
0100
0000
0100
0000
,
0001
0000
0000
0000
0000
0000
0000
0000
0000
0000
0000
0000
0000
0000
0000
0000
0000
0000
0000
0000
0000
0000
0000
0000
0000
0000
0000
0000
0000
0000
0000
0000
0000
0000
0000
0000
0000
0000
0000
0000
0000
0000
0000
0000
0000
0000
M000
000M
,
0000
0000
0000
0010
0000
0100
0001
0000
0100
0000
0000
0010
0000
0100
0100
0000
,
0001
0000
0000
0000
0000
0000
0100
0000
0000
0000
0000
0000
0000
0100
0000
0000
0000
0000
0010
0000
0000
0000
0000
0000
0000
0100
0000
0000
0000
0000
0000
1000
0000
0000
0000
0000
0000
0010
0000
0000
0000
0000
0100
0000
0000
0000
M000
000M
,
0000
0000
0100
0000
0010
0000
0000
0100
0001
0000
0001
0000
0000
0010
0000
1000
,
0100
0000
0000
0000
0000
0000
0000
0010
0000
0000
0000
0000
0001
0000
0000
0000
0000
0000
0100
0000
0000
0000
0000
0000
0000
0100
0000
0000
0000
0000
0010
0000
0000
0000
0000
0000
0001
0000
0000
0000
0000
0000
0000
0100
0000
0000
M000
000M
,
0000
0000
0100
0000
0000
1000
0010
0000
0000
0010
0100
0000
0000
0100
0000
0010
,
0001
0000
0000
0000
0000
0000
0100
0000
0000
0000
0000
0000
0000
1000
0000
0000
0000
0000
0010
0000
0000
0000
0000
0000
0000
0100
0000
0000
0000
0000
0001
0000
0000
0000
0000
0000
0100
0000
0000
0000
0000
0000
0001
0000
0000
0000
M000
000M
,
0000
0000
0000
0100
0000
1000
0001
0000
0010
0000
0000
0010
0000
1000
0001
0000
,
0000
0100
0000
0000
0000
0000
0001
0000
0000
0000
0000
0000
0000
0100
0000
0000
0000
0000
0100
0000
0000
0000
0000
0000
0010
0000
0000
0000
0000
0000
0000
0010
0000
0000
0000
0000
0001
0000
0000
0000
0000
0000
0010
0000
0000
0000
M000
000M
,
0000
0000
0000
0000
0010
0000
0000
0010
0000
1000
0000
0000
0000
0100
0100
0000
0000
1000
0010
0000
0001
0000
0000
0010
0100
0000
0000
0000
0000
0000
0000
0000
,
0001
0000
0000
0000
0000
0000
0000
0000
0000
0000
0000
0000
0000
1000
0000
0000
0000
0000
0000
0000
0000
0000
0000
0000
0010
0000
0000
0000
0000
0000
0000
0000
0000
0000
0000
0000
0001
0000
0000
0000
0000
0000
0000
0000
0000
0000
0000
0000
0000
0010
0000
0000
0000
0000
0001
0000
0000
0000
0000
0000
0000
1000
0000
0000
0000
0000
0100
0000
0000
0000
0000
0000
0000
0000
0000
0000
0000
0000
0000
0000
0000
0000
0000
0000
0000
1000
0000
0000
0000
0000
0000
1000
M000
000M
0000
0000
,
0000
0000
0100
0000
0010
0000
0000
0010
0000
1000
0000
0100
0100
0000
0000
0010
,
0000
0100
0000
0000
0000
0000
0000
0000
0000
0000
0000
0000
0000
0000
0000
0000
0000
0000
0000
0010
0000
0000
0000
0000
0001
0000
0000
0000
0000
0000
0000
0000
0000
0000
0000
0000
0000
0100
0000
0000
0000
0000
0000
0000
0000
0000
0000
0000
0100
0000
0000
0000
0000
0000
0000
0100
0000
0000
0000
0000
0001
0000
0000
0000
0000
0000
0000
0000
0000
0000
0000
0000
0000
0100
0000
0000
0000
0000
0000
0000
0000
0000
0000
0000
0100
0000
0000
0000
0000
0000
0000
0000
M000
000M
0000
0000
,
0000
0000
0000
0000
0000
1000
0010
0000
0001
0000
0000
0000
0000
0010
0000
0100
0000
0100
0001
0000
0100
0000
0001
0000
0010
0000
0000
0100
0010
0000
0000
1000
,
0000
0010
0000
0000
0000
0000
0000
0000
0000
0000
0000
0000
0010
0000
0000
0000
0000
0000
0010
0000
0000
0000
0000
0000
0000
0100
0000
0000
0000
0000
0000
1000
0000
0000
0000
0000
0000
0100
0000
0000
0000
0000
0010
0000
0000
0000
0000
0000
0000
0010
0000
0000
0000
0000
0000
0000
0000
0000
0000
0000
0000
0000
0000
0000
0000
0000
0000
1000
0000
0000
0000
0000
0000
0000
0000
0000
0000
0000
0000
0000
0000
0000
0000
0000
0100
0000
0000
0000
0000
0000
0000
0000
M000
000M
0000
0000
,
0000
0000
0000
0000
0001
0000
0001
0000
0000
0100
0000
0000
0000
0100
0010
0000
0000
1000
0100
0000
0000
0010
0010
0000
0000
0100
0001
0000
0000
1000
0000
0000
,
0001
0000
0000
0000
0000
0000
0000
0000
0000
0000
0000
0000
0000
0000
0000
0000
0000
0000
0100
0000
0000
0000
0000
0000
0000
0010
0000
0000
0000
0000
0000
0000
0000
0000
0000
0000
0000
1000
0000
0000
0000
0000
0000
1000
0000
0000
0000
0000
0100
0000
0000
0000
0000
0000
0001
0000
0000
0000
0000
0000
0000
0010
0000
0000
0000
0000
0000
0000
0000
0000
0000
0000
0000
0100
0000
0000
0000
0000
0000
0000
0000
0000
0000
0000
0100
0000
0000
0000
0000
0000
0000
0000
M000
000M
0000
0000
,
0000
0000
0000
0000
0010
0000
0000
0100
0100
0000
0000
0000
0000
0010
0000
0100
0100
0000
0000
1000
0010
0000
0000
1000
0000
0100
0010
0000
0000
0010
0100
0000
,
0001
0000
0000
0000
0000
0000
0000
1000
0000
0000
0000
0000
0100
0000
0000
0000
0000
0000
0001
0000
0000
0000
0000
0000
0100
0000
0000
0000
0000
0000
0000
1000
0000
0000
0000
0000
0010
0000
0000
0000
0000
0000
0000
1000
0000
0000
M000
000M
,
0000
0000
0000
0000
0000
0000
0000
0100
0000
0000
0000
0000
0001
0000
0000
0000
0010
0000
0000
0000
0000
0000
0100
0000
0000
0000
0000
0000
0001
0000
0000
0000
,
0000
0100
0000
0000
0000
0000
0000
0000
0000
0000
0000
0000
0000
0000
0000
0000
0000
0000
0000
1000
0000
0000
0000
0000
0000
0000
0000
0000
0000
0000
0000
0000
0000
0000
0000
0000
0001
0000
0000
0000
0000
0000
0000
0000
0000
0000
0000
0000
0000
0100
0000
0000
0000
0000
0100
0000
0000
0000
0000
0000
0001
0000
0000
0000
0000
0000
0010
0000
0000
0000
0000
0000
0000
1000
0000
0000
0000
0000
0100
0000
0000
0000
0000
0000
0000
0010
0000
0000
0000
0000
0000
0100
M000
000M
0000
0000
,
0000
0000
0000
0000
0100
0000
0100
0000
0000
0000
0000
0000
0000
0010
0000
0000
0000
1000
0000
0000
0000
0100
0000
0100
0000
0000
0000
0000
0100
0000
0000
0000
,
0000
0010
0000
0000
0000
0000
0000
0000
0000
0000
0000
0000
0000
1000
0000
0000
0000
0000
0000
1000
0000
0000
0000
0000
0000
0000
0000
0000
0000
0000
0000
0000
0000
0000
0000
0000
0010
0000
0000
0000
0000
0000
0000
0000
0000
0000
0000
0000
0000
0100
0000
0000
0000
0000
0000
0000
0000
0000
0000
0000
0100
0000
0000
0000
0000
0000
0000
0000
0000
0000
0000
0000
0100
0000
0000
0000
0000
0000
0010
0000
0000
0000
0000
0000
0000
0000
0000
0000
0000
0000
0000
0000
M000
000M
0000
0000
,
0000
0000
0000
0000
0000
0000
0100
0000
0000
0000
0000
0000
0000
0100
0000
0000
0000
1000
0000
0000
0000
0000
0010
0000
0000
0000
0000
0000
0000
0010
0000
0000
,
0000
1000
0000
0000
0000
0000
0000
0000
0000
0000
0000
0000
0000
0000
0000
0000
0000
0000
0000
0010
0000
0000
0000
0000
0000
0000
0000
0000
0000
0000
0000
0000
0000
0000
0000
0000
0000
0010
0000
0000
0000
0000
0000
0000
0000
0000
0000
0000
0001
0000
0000
0000
0000
0000
0000
0010
0000
0000
0000
0000
0000
0100
0000
0000
0000
0000
0010
0000
0000
0000
0000
0000
0000
1000
0000
0000
0000
0000
0100
0000
0000
0000
0000
0000
0000
0010
0000
0000
0000
0000
0001
0000
M000
000M
0000
0000
,
0000
0000
0000
0000
0100
0000
0100
0000
0000
0000
0000
0000
0000
0010
0000
0000
0000
0100
0000
0000
0000
1000
0000
1000
0000
0000
0000
0000
0001
0000
0000
0000
,
0010
0000
0000
0000
0000
0000
0000
0000
0000
0000
0000
0000
0000
1000
0000
0000
0000
0000
0000
0100
0000
0000
0000
0000
0000
0000
0000
0000
0000
0000
0000
0000
0000
0000
0000
0000
0000
0010
0000
0000
0000
0000
0100
0000
0000
0000
0000
0000
0000
1000
0000
0000
0000
0000
0000
0000
0000
0000
0000
0000
0000
0010
0000
0000
0000
0000
0000
0000
0000
0000
0000
0000
0000
0010
0000
0000
0000
0000
0000
0100
0000
0000
0000
0000
0000
0000
0000
0000
0000
0000
0000
0000
M000
000M
0000
0000
,
0000
0000
0000
0010
0000
1000
0010
0000
0001
0000
0000
1000
0100
0000
0000
0010
,
0000
0100
0000
0000
0000
0000
0000
1000
0000
0000
0000
0000
0100
0000
0000
0000
0000
0000
0000
1000
0000
0000
0000
0000
0000
0100
0000
0000
0000
0000
0010
0000
0000
0000
0000
0000
0000
0010
0000
0000
0000
0000
0000
1000
0000
0000
M000
000M
,
0000
0000
0010
0000
0100
0000
0000
1000
0000
0100
0010
0000
0100
0000
0001
0000
,
0010
0000
0000
0000
0000
0000
0000
0100
0000
0000
0000
0000
0000
0010
0000
0000
0000
0000
0000
0100
0000
0000
0000
0000
0000
0010
0000
0000
0000
0000
0001
0000
0000
0000
0000
0000
0000
1000
0000
0000
0000
0000
0100
0000
0000
0000
M000
000M
,
0000
0000
0100
0000
0000
0010
0000
0100
0001
0000
0000
1000
0100
0000
0010
0000
,
0000
1000
0000
0000
0000
0000
0000
0010
0000
0000
0000
0000
0001
0000
0000
0000
0000
0000
0000
0100
0000
0000
0000
0000
0000
1000
0000
0000
0000
0000
0010
0000
0000
0000
0000
0000
0000
0010
0000
0000
0000
0000
0001
0000
0000
0000
M000
000M
,
0000
0000
0000
0100
0100
0000
0010
0000
0000
1000
0010
0000
0000
0010
0000
0100
,
0000
0010
0000
0000
0000
0010
0000
0000
0001
0000
0000
0000
0001
0000
0000
0000
0000
1000
0000
0000
0000
1000
0000
0000
0100
0000
0000
0000
0100
0000
0000
0000
0000
0010
0000
0000
0001
0000
0000
0000
0000
0100
0000
0000
0010
0000
0000
0000
0000
1000
0000
0000
0100
0000
0000
0000
0000
0100
0010
0000
0000
0010
0001
0000
,
0000
0100
0100
0000
0000
0010
0010
0000
0000
0100
0001
0000
0000
0100
0100
0000
,
0000
0010
0000
0000
0000
0000
0000
0000
0000
0000
0000
0000
0000
0000
0000
0000
0000
0000
0000
0000
0000
0000
0000
0000
0000
0100
0000
0000
0000
0000
0000
0000
0000
0000
0000
0000
0000
0010
0000
0000
0000
0000
0000
0100
0000
0000
M000
000M
,
0000
0000
0000
0000
0000
0000
0000
0000
,
0100
0000
0000
0000
0000
0000
0000
0000
0000
0000
0000
0000
0000
0000
0000
0000
0000
0000
0000
0000
0000
0000
0000
0000
0000
0000
0000
0000
0000
0000
0000
0000
0000
0000
0000
0000
0000
0000
0000
0000
0000
0000
0000
0000
0000
0000
M000
000M
,
0000
0000
0000
0010
0000
0100
0000
0010
0000
1000
0000
0100
0100
0000
0000
0100
,
0100
0000
0000
0000
0000
0000
0000
0100
0000
0000
0000
0000
0001
0000
0000
0000
0000
0000
0100
0000
0000
0000
0000
0000
0000
1000
0000
0000
0000
0000
0000
0000
0000
0000
0000
0000
0001
0000
0000
0000
0000
0000
0010
0000
0000
0000
M000
000M
,
0000
0000
0000
0000
0000
0000
0000
0000
0000
0000
0000
0000
0000
0000
0000
0100
,
0000
0010
0100
0000
0010
0000
0000
0100
0100
0000
0000
0010
0000
0100
0000
1000
,
0000
0000
0000
0000
0000
0000
0000
0000
0000
0000
0000
0000
0000
0000
0000
0000
0000
0000
0000
0000
0000
0000
0000
0000
0000
0000
0000
0000
0000
0000
0000
0000
0000
0000
0000
0000
0000
0000
0000
0000
0000
0000
0000
0000
0000
0000
0000
0000
0000
0000
0000
0000
0000
0000
0000
0000
0000
0000
0000
0000
0000
0000
0000
0000
0000
0000
0000
0000
0000
0000
0000
0000
0000
0000
0000
0000
0000
0000
0000
0000
0000
0000
0000
0000
0000
1000
0000
0000
0000
0000
0000
1000
M000
000M
0000
0000
,
0000
0000
0000
0100
0000
0010
0100
0000
0000
1000
0000
0100
0001
0000
0010
0000
,
0001
0000
0000
0000
0000
0000
0000
0000
0000
0000
0000
0000
0000
0000
0000
0000
0000
0000
0000
0010
0000
0000
0000
0000
0000
0010
0000
0000
0000
0000
0000
0000
0000
0000
0000
0000
0001
0000
0000
0000
0000
0000
0000
0010
0000
0000
0000
0000
0010
0000
0000
0000
0000
0000
0000
0100
0000
0000
0000
0000
0100
0000
0000
0000
0000
0000
0000
0000
0000
0000
0000
0000
0010
0000
0000
0000
0000
0000
0000
0000
0000
0000
0000
0000
0000
0100
0000
0000
0000
0000
0000
0000
M000
000M
0000
0000
,
0000
0000
0000
0000
0000
0100
0100
0000
0100
0000
0000
0000
0010
0000
0000
0010
0100
0000
0000
1000
0000
0010
0001
0000
0000
0100
0010
0000
0000
1000
0100
0000
,
0100
0000
0000
0000
0000
0000
0000
0000
0000
0000
0000
0000
0001
0000
0000
0000
0000
0000
0000
0010
0000
0000
0000
0000
0000
0000
0000
0000
0000
0000
0000
0010
0000
0000
0000
0000
0000
0010
0000
0000
0000
0000
0001
0000
0000
0000
0000
0000
0001
0000
0000
0000
0000
0000
0000
0000
0000
0000
0000
0000
0000
0000
0000
0000
0000
0000
0000
0100
0000
0000
0000
0000
0000
0000
0000
0000
0000
0000
0000
0000
0000
0000
0000
0000
0001
0000
0000
0000
0000
0000
0000
0000
M000
000M
0000
0000
,
0000
0000
0000
0000
0000
0100
0001
0000
0000
0100
0000
0000
0100
0000
0000
0100
0100
0000
0000
1000
0010
0000
0001
0000
0000
1000
0001
0000
0010
0000
0000
1000
,
0000
0100
0000
0000
0000
0000
0000
0000
0000
0000
0000
0000
0000
0000
0000
0000
0000
0000
0000
0100
0000
0000
0000
0000
0000
1000
0000
0000
0000
0000
0000
0000
0000
0000
0000
0000
0001
0000
0000
0000
0000
0000
0010
0000
0000
0000
0000
0000
0000
0100
0000
0000
0000
0000
0010
0000
0000
0000
0000
0000
0100
0000
0000
0000
0000
0000
0000
0000
0000
0000
0000
0000
0010
0000
0000
0000
0000
0000
0000
0000
0000
0000
0000
0000
0000
0100
0000
0000
0000
0000
0000
0000
M000
000M
0000
0000
,
0000
0000
0000
0000
0010
0000
0000
0100
0100
0000
0000
0000
0010
0000
0100
0000
0000
0100
0000
0010
0000
1000
0100
0000
0100
0000
0000
0010
0001
0000
0010
0000
,
0000
0010
0000
0000
0000
0000
0000
0000
0000
0000
0000
0000
0000
0010
0000
0000
0000
0000
0000
0100
0000
0000
0000
0000
0100
0000
0000
0000
0000
0000
0001
0000
0000
0000
0000
0000
0000
0010
0000
0000
0000
0000
0000
1000
0000
0000
0000
0000
0100
0000
0000
0000
0000
0000
0000
0010
0000
0000
0000
0000
0100
0000
0000
0000
0000
0000
0000
0100
0000
0000
0000
0000
0001
0000
0000
0000
0000
0000
0100
0000
0000
0000
0000
0000
0000
0010
0000
0000
0000
0000
0010
0000
M000
000M
0000
0000
,
0000
0000
0000
0000
0000
0000
0000
0010
0000
0000
0000
0000
0100
0000
0000
0000
0000
1000
0000
0000
0000
0000
0001
0000
0000
0000
0000
0000
0000
1000
0000
0000
,
0100
0000
0000
0000
0000
0000
0000
0000
0000
0000
0000
0000
0000
0000
0000
0000
0000
0000
0000
0010
0000
0000
0000
0000
0000
0000
0000
0000
0000
0000
0000
0000
0000
0000
0000
0000
0100
0000
0000
0000
0000
0000
0000
0000
0000
0000
0000
0000
0000
1000
0000
0000
0000
0000
0001
0000
0000
0000
0000
0000
0000
0010
0000
0000
0000
0000
0100
0000
0000
0000
0000
0000
0000
0100
0000
0000
0000
0000
0001
0000
0000
0000
0000
0000
0000
1000
0000
0000
0000
0000
0100
0000
M000
000M
0000
0000
,
0000
0000
0000
0000
0000
0100
0000
0100
0000
0000
0000
0000
0010
0000
0000
0000
0100
0000
0000
0000
0001
0000
0001
0000
0000
0000
0000
0000
0000
0010
0000
0000
,
0000
0100
0000
0000
0000
0000
0000
0000
0000
0000
0000
0000
0100
0000
0000
0000
0000
0000
0100
0000
0000
0000
0000
0000
0000
0000
0000
0000
0000
0000
0000
0000
0000
0000
0000
0000
0010
0000
0000
0000
0000
0000
0000
0000
0000
0000
0000
0000
0000
0010
0000
0000
0000
0000
0000
0000
0000
0000
0000
0000
0100
0000
0000
0000
0000
0000
0000
0000
0000
0000
0000
0000
0100
0000
0000
0000
0000
0000
0010
0000
0000
0000
0000
0000
0000
0000
0000
0000
0000
0000
0000
0000
M000
000M
0000
0000
,
0000
0000
0000
0000
0000
0000
0000
0100
0000
0000
0000
0000
0010
0000
0000
0000
0100
0000
0000
0000
0000
0000
0000
0010
0000
0000
0000
0000
0000
0100
0000
0000
,
0000
0100
0000
0000
0000
0000
0000
0000
0000
0000
0000
0000
0000
0000
0000
0000
0000
0000
0000
1000
0000
0000
0000
0000
0000
0000
0000
0000
0000
0000
0000
0000
0000
0000
0000
0000
0001
0000
0000
0000
0000
0000
0000
0000
0000
0000
0000
0000
0000
1000
0000
0000
0000
0000
0100
0000
0000
0000
0000
0000
0000
0010
0000
0000
0000
0000
0001
0000
0000
0000
0000
0000
0000
1000
0000
0000
0000
0000
0100
0000
0000
0000
0000
0000
0000
0010
0000
0000
0000
0000
0001
0000
M000
000M
0000
0000
,
0000
0000
0000
0000
0100
0000
0100
0000
0000
0000
0000
0000
0100
0000
0000
0000
0001
0000
0000
0000
0000
0100
0000
0100
0000
0000
0000
0000
0000
0010
0000
0000
,
0000
0100
0000
0000
0000
0100
0000
0100
0000
0000
0000
0000
0000
0100
0001
0000
0000
0010
0000
0000
0010
0000
0000
0000
0000
1000
0010
0000
0000
0000
0000
0000
;
